Torrent Details

Photo Not Available
[MovCr com] - Solo A Star Wars Story (2018) English - 720p - HD-CAM - x264 - 750MB - MovCr
Size766 MB in 1 file
ReleasesAdded Today at 3:01 into the Movies category by Unknown.
Status4 seeds & 4 peers.
Hash9da286b2d237487ba426523cecaa0f8076faabef
Rating
  • YourBT Visitors

Status This torrent has been verified.
*

Torrent Description

Solo A Star Wars Story (2018) English - 720p - HD-CAM - x264 - 750MB - MovCr


Video
ID : 1
Format : AVC
Format/Info : Advanced Video Codec
Format profile : [email protected]
Format settings, CABAC : Yes
Format settings, ReFrames : 4 frames
Codec ID : V_MPEG4/ISO/AVC
Duration : 2 h 5 min
Bit rate : 764 kb/s
Width : 1 280 pixels
Height : 504 pixels
Display aspect ratio : 2.540
Frame rate mode : Constant
Frame rate : 29.970 (30000/1001) FPS
Color space : YUV
Chroma subsampling : 4:2:0
Bit depth : 8 bits
Scan type : Progressive
Bits/(Pixel*Frame) : 0.040
Stream size : 683 MiB (89%)
Title : www.MovCr.com
Writing library : x264 core 155 r2901 7d0ff22
Encoding settings : cabac=1 / ref=3 / deblock=1:0:0 / analyse=0x3:0x113 / me=hex / subme=7 / psy=1 / psy_rd=1.00:0.00 / mixed_ref=1 / me_range=16 / chroma_me=1 / trellis=1 / 8x8dct=1 / cqm=0 / deadzone=21,11 / fast_pskip=1 / chroma_qp_offset=-2 / threads=16 / lookahead_threads=2 / sliced_threads=0 / nr=0 / decimate=1 / interlaced=0 / bluray_compat=0 / constrained_intra=0 / bframes=3 / b_pyramid=2 / b_adapt=1 / b_bias=0 / direct=1 / weightb=1 / open_gop=0 / weightp=2 / keyint=300 / keyint_min=29 / scenecut=40 / intra_refresh=0 / rc_lookahead=40 / rc=2pass / mbtree=1 / bitrate=764 / ratetol=1.0 / qcomp=0.60 / qpmin=0 / qpmax=69 / qpstep=4 / cplxblur=20.0 / qblur=0.5 / ip_ratio=1.40 / aq=1:1.00
Language : English
Default : Yes
Forced : No

Audio
ID : 2
Format : MPEG Audio
Format version : Version 1
Format profile : Layer 3
Mode : Joint stereo
Mode extension : MS Stereo
Codec ID : A_MPEG/L3
Codec ID/Hint : MP3
Duration : 2 h 5 min
Bit rate mode : Variable
Bit rate : 90.1 kb/s
Nominal bit rate : 96.0 kb/s
Channel(s) : 2 channels
Sampling rate : 48.0 kHz
Frame rate : 41.667 FPS (1152 spf)
Compression mode : Lossy
Stream size : 80.6 MiB (11%)
Title : www.MovCr.com
Writing library : LAME3.99r
Encoding settings : -m j -V 4 -q 3 -lowpass 15.1 --abr 96
Language : English
Default : Yes
Forced : No





Similar Torrents

No Similar Torrents Found

If we find similar torrents, we normally show them right here. We couldn't find anything for "".

Torrent Trackers

TRACKER URLSEEDSPEERS
Onlineudp://tracker.open-internet.nl:6969/announce44
Onlineudp://tracker.coppersurfer.tk:6969/announce34
Onlineudp://tracker.pirateparty.gr:6969/announce34
Onlineudp://tracker.opentrackr.org:1337/announce24

Files inside this torrent

FILENAMESIZE
icon [MovCr.com] - Solo A Star Wars Story (2018) English - 720p - HD-CAM - x264 - 750MB - MovCr.mkv766.1 MB