Torrent Details

Photo Not Available
Avengers-Infinity War (2018) 1080p HEVC H265 Dual Audio [Hindi DD 5 1 640 Kbps - English DD 5 1 448 Kbps] [Dzrg Torrents®]
Size3.1 GB in 1 file
ReleasesAdded Today at 7:19 into the Movies category by Unknown.
Status0 seeds & 0 peers.
Hash2dbf2ccabd4992c138113ca186b5c7aeba9e8666
Rating
  • YourBT Visitors

Status This torrent has been verified.
*

Torrent Description

[align=center]





Avengers-Infinity War (2018) 1080p HEVC H265 Dual Audio [Hindi DD 5.1 640 Kbps - English DD 5.1 448 Kbps] [Dzrg Torrents®].mkv



Taglines: An entire universe. Once and for all.

[video]http://www.youtube.com/watch?v=6ZfuNTqbHE8[/video]



Audio Credits Hammer Bro..!!



General
Unique ID : 56791943261305205422882372749105461617 (0x2AB9BAFC53733B692ED4836D6BE27971)
Format : Matroska
Format version : Version 4 / Version 2
File size : 3.07 GiB
Duration : 2 h 29 min
Overall bit rate : 2 938 kb/s
Movie name : Avengers-Infinity War (2018) 1080p HEVC H265 Dual Audio [Hindi DD 5.1 640 Kbps - English DD 5.1 448 Kbps] [Dzrg Torrents®].mkv
Encoded date : UTC 2018-08-20 05:10:58
Writing application : mkvmerge v25.0.0 ('Prog Noir') 64-bit
Writing library : libebml v1.3.6 + libmatroska v1.4.9




Video
ID : 1
Format : HEVC
Format/Info : High Efficiency Video Coding
Format profile : [email protected]@Main
Codec ID : V_MPEGH/ISO/HEVC
Duration : 2 h 29 min
Bit rate : 1 844 kb/s
Width : 1 920 pixels
Height : 808 pixels
Display aspect ratio : 2.40:1
Frame rate mode : Constant
Frame rate : 23.976 (24000/1001) FPS
Color space : YUV
Chroma subsampling : 4:2:0
Bit depth : 8 bits
Bits/(Pixel*Frame) : 0.050
Stream size : 1.92 GiB (63%)
Title : Avengers-Infinity War (2018) 1080p HEVC H265 Multi DD 5.1 448 Kbps Audio [Hindi-Tamil-Telugu-English] [Dzrg Torrents®].mkv
Language : Hindi
Default : Yes
Forced : No
Color range : Limited
Color primaries : BT.709
Transfer characteristics : BT.709
Matrix coefficients : BT.709







Audio #1
ID : 2
Format : AC-3
Format/Info : Audio Coding 3
Codec ID : A_AC3
Duration : 2 h 29 min
Bit rate mode : Constant
Bit rate : 640 kb/s
Channel(s) : 6 channels
Channel positions : Front: L C R, Side: L R, LFE
Sampling rate : 48.0 kHz
Frame rate : 31.250 FPS (1536 SPF)
Bit depth : 16 bits
Compression mode : Lossy
Stream size : 684 MiB (22%)
Title : [Hindi DD 5.1 640 Kbps] [Dzrg Torrents®]
Language : Hindi
Service kind : Complete Main
Default : Yes
Forced : No




Audio #2
ID : 3
Format : AC-3
Format/Info : Audio Coding 3
Codec ID : A_AC3
Duration : 2 h 29 min
Bit rate mode : Constant
Bit rate : 448 kb/s
Channel(s) : 6 channels
Channel positions : Front: L C R, Side: L R, LFE
Sampling rate : 48.0 kHz
Frame rate : 31.250 FPS (1536 SPF)
Bit depth : 16 bits
Compression mode : Lossy
Stream size : 479 MiB (15%)
Title : [English DD 5.1 448 Kbps] [Dzrg Torrents®]
Language : English
Service kind : Complete Main
Default : No
Forced : No




Text
ID : 4
Format : VobSub
Muxing mode : zlib
Codec ID : S_VOBSUB
Codec ID/Info : Picture based subtitle format used on DVDs
Duration : 2 h 28 min
Bit rate : 6 185 b/s
Count of elements : 2067
Stream size : 6.57 MiB (0%)
Title : [Vob Sub] [Dzrg Torrents®]
Language : English
Default : Yes
Forced : No




Menu
00:00:00.000 : en:00:00:00.000
00:11:28.730 : en:00:11:28.730
00:18:13.884 : en:00:18:13.884
00:27:23.809 : en:00:27:23.809
00:35:48.813 : en:00:35:48.813
00:42:23.541 : en:00:42:23.541
00:54:12.875 : en:00:54:12.875
00:59:36.740 : en:00:59:36.740
01:05:07.153 : en:01:05:07.153
01:10:53.666 : en:01:10:53.666
01:17:06.956 : en:01:17:06.956
01:24:14.758 : en:01:24:14.758
01:31:08.004 : en:01:31:08.004
01:42:00.406 : en:01:42:00.406
01:45:57.810 : en:01:45:57.810
01:53:04.069 : en:01:53:04.069
01:58:52.917 : en:01:58:52.917
02:03:58.181 : en:02:03:58.181
02:11:13.282 : en:02:11:13.282
02:17:31.285 : en:02:17:31.285


Please Contribute Through Bitcoin-378zyc7YCno2H3kpqQomw1aJaUTaoeQWGC





Seeding From High Server

[/align]



Similar Torrents

No Similar Torrents Found

If we find similar torrents, we normally show them right here. We couldn't find anything for "".

Torrent Trackers

TRACKER URLSEEDSPEERS
Onlineudp://tracker.pirateparty.gr:6969/announce96

Files inside this torrent

FILENAMESIZE
icon Avengers-Infinity War (2018) 1080p HEVC H265 Dual Audio [Hindi DD 5.1 640 Kbps - English DD 5.1 448 Kbps] [Dzrg Torrents®].mkv3.1 GB