Torrent Details

Photo Not Available
Eeda (2018) Malayalam HDRip x264 MP3 700MB - MovCr
Size724 MB in 1 file
ReleasesAdded on 23.09.2018 at 18:49 into the Movies category by Unknown.
Status21 seeds & 0 peers.
Hashdad59cf008bceb640c736c9596e1ecccc995d201
Rating
  • YourBT Visitors

Status This torrent has been verified.
*

Torrent Description

Our Site www.movcr.com


Eeda (2018) Malayalam HDRip x264 MP3 700MB - MovCr  


http://www.imdb.com/title/tt7477108/



General
Unique ID                                : 241219627170694203959689019439152119250 (0xB57935D726B3CA26185A236C607C3DD2)
Complete name                            : D:www.MovCr.com - Eeda (2018) Malayalam HDRip x264 MP3 700MB - MovCr.mkv
Format                                   : Matroska
Format version                           : Version 4 / Version 2
File size                                : 724 MiB
Duration                                 : 2 h 32 min
Overall bit rate                         : 663 kb/s
Movie name                               : www.MovCr.com
Encoded date                             : UTC 2018-09-15 12:59:39
Writing application                      : mkvmerge v26.0.0 ('In The Game') 64-bit
Writing library                          : libebml v1.3.6 + libmatroska v1.4.9

Video
ID                                       : 1
Format                                   : AVC
Format/Info                              : Advanced Video Codec
Format profile                           : [email protected]
Format settings                          : CABAC / 4 Ref Frames
Format settings, CABAC                   : Yes
Format settings, RefFrames               : 4 frames
Codec ID                                 : V_MPEG4/ISO/AVC
Duration                                 : 2 h 32 min
Bit rate                                 : 582 kb/s
Width                                    : 720 pixels
Height                                   : 306 pixels
Display aspect ratio                     : 2.35:1
Frame rate mode                          : Constant
Frame rate                               : 24.000 FPS
Color space                              : YUV
Chroma subsampling                       : 4:2:0
Bit depth                                : 8 bits
Scan type                                : Progressive
Bits/(Pixel*Frame)                       : 0.110
Stream size                              : 634 MiB (88%)
Title                                    : www.MovCr.com
Writing library                          : x264 core 155 r2901 7d0ff22
Encoding settings                        : cabac=1 / ref=2 / deblock=1:0:0 / analyse=0x3:0x113 / me=hex / subme=6 / psy=1 / psy_rd=1.00:0.00 / mixed_ref=1 / me_range=16 / chroma_me=1 / trellis=1 / 8x8dct=1 / cqm=0 / deadzone=21,11 / fast_pskip=1 / chroma_qp_offset=-2 / threads=10 / lookahead_threads=1 / sliced_threads=0 / nr=0 / decimate=1 / interlaced=0 / bluray_compat=0 / constrained_intra=0 / bframes=3 / b_pyramid=2 / b_adapt=1 / b_bias=0 / direct=1 / weightb=1 / open_gop=0 / weightp=1 / keyint=240 / keyint_min=24 / scenecut=40 / intra_refresh=0 / rc_lookahead=30 / rc=abr / mbtree=1 / bitrate=582 / ratetol=1.0 / qcomp=0.60 / qpmin=0 / qpmax=69 / qpstep=4 / ip_ratio=1.40 / aq=1:1.00
Default                                  : Yes
Forced                                   : No
Color range                              : Limited
Color primaries                          : BT.709
Transfer characteristics                 : BT.709
Matrix coefficients                      : BT.709

Audio
ID                                       : 2
Format                                   : MPEG Audio
Format version                           : Version 1
Format profile                           : Layer 3
Format settings                          : Joint stereo / MS Stereo
Codec ID                                 : A_MPEG/L3
Codec ID/Hint                            : MP3
Duration                                 : 2 h 32 min
Bit rate mode                            : Constant
Bit rate                                 : 80.0 kb/s
Channel(s)                               : 2 channels
Sampling rate                            : 48.0 kHz
Frame rate                               : 41.667 FPS (1152 SPF)
Compression mode                         : Lossy
Delay relative to video                  : -64 ms
Stream size                              : 87.4 MiB (12%)
Default                                  : Yes
Forced                                   : No











Similar Torrents

No Similar Torrents Found

If we find similar torrents, we normally show them right here. We couldn't find anything for "".

Torrent Trackers

TRACKER URLSEEDSPEERS
Onlineudp://tracker.opentrackr.org:1337/announce210
Onlineudp://tracker.pirateparty.gr:6969/announce170
Onlineudp://tracker.coppersurfer.tk:6969/announce160
Onlineudp://tracker.open-internet.nl:6969/announce60

Files inside this torrent

FILENAMESIZE
icon www.MovCr.com - Eeda (2018) Malayalam HDRip x264 MP3 700MB - MovCr.mkv723.7 MB