Torrent Details

Photo Not Available
[MovCr com] - The Meg(2018) 720p - HC-HDRip - x264 - Line Auds [Hindi + Tamil + Eng] - 900MB - MovCr
Size897 MB in 1 file
ReleasesAdded on 24.09.2018 at 22:03 into the Movies category by Unknown.
Status0 seeds & 0 peers.
Hash0f5b7faf01befe74424a2038865b4b231f7f4471
Rating
  • YourBT Visitors

Status This torrent has been verified.
*

Torrent Description

The Meg(2018) 720p - HC-HDRip - x264 - Line Auds [Hindi + Tamil + Eng] - 900MB - MovCr


General
Unique ID : 86616714326802004705538672173722713314 (0x4129C5BABCDEB0BD06A2F81CB4053CE2)
Complete name : D:HDFRAEN1134[MovCr.com] - The Meg(2018) 720p - HC-HDRip - x264 - Line Auds [Hindi + Tamil + Eng] - 900MB - MovCr.mkv
Format : Matroska
Format version : Version 4 / Version 2
File size : 897 MiB
Duration : 1 h 49 min
Overall bit rate mode : Variable
Overall bit rate : 1 147 kb/s
Movie name : www.MovCr.com
Encoded date : UTC 2018-09-17 09:56:06
Writing application : mkvmerge v25.0.0 ('Prog Noir') 64-bit
Writing library : libebml v1.3.6 + libmatroska v1.4.9

Video
ID : 1
Format : AVC
Format/Info : Advanced Video Codec
Format profile : [email protected]
Format settings : CABAC / 4 Ref Frames
Format settings, CABAC : Yes
Format settings, ReFrames : 4 frames
Codec ID : V_MPEG4/ISO/AVC
Duration : 1 h 49 min
Bit rate : 866 kb/s
Width : 1 280 pixels
Height : 536 pixels
Display aspect ratio : 2.40:1
Frame rate mode : Constant
Frame rate : 24.000 FPS
Color space : YUV
Chroma subsampling : 4:2:0
Bit depth : 8 bits
Scan type : Progressive
Bits/(Pixel*Frame) : 0.053
Stream size : 677 MiB (75%)
Title : www.MovCr.com
Writing library : x264 core 155 r2901 7d0ff22
Encoding settings : cabac=1 / ref=3 / deblock=1:0:0 / analyse=0x3:0x113 / me=hex / subme=7 / psy=1 / psy_rd=1.00:0.00 / mixed_ref=1 / me_range=16 / chroma_me=1 / trellis=1 / 8x8dct=1 / cqm=0 / deadzone=21,11 / fast_pskip=1 / chroma_qp_offset=-2 / threads=17 / lookahead_threads=2 / sliced_threads=0 / nr=0 / decimate=1 / interlaced=0 / bluray_compat=0 / constrained_intra=0 / bframes=3 / b_pyramid=2 / b_adapt=1 / b_bias=0 / direct=1 / weightb=1 / open_gop=0 / weightp=2 / keyint=240 / keyint_min=24 / scenecut=40 / intra_refresh=0 / rc_lookahead=40 / rc=2pass / mbtree=1 / bitrate=866 / ratetol=1.0 / qcomp=0.60 / qpmin=0 / qpmax=69 / qpstep=4 / cplxblur=20.0 / qblur=0.5 / ip_ratio=1.40 / aq=1:1.00
Language : English
Default : Yes
Forced : No

Audio #1
ID : 2
Format : MPEG Audio
Format version : Version 1
Format profile : Layer 3
Format settings : Joint stereo / MS Stereo
Codec ID : A_MPEG/L3
Codec ID/Hint : MP3
Duration : 1 h 49 min
Bit rate mode : Variable
Bit rate : 96.0 kb/s
Channel(s) : 2 channels
Sampling rate : 48.0 kHz
Frame rate : 41.667 FPS (1152 SPF)
Compression mode : Lossy
Stream size : 74.1 MiB (8%)
Title : www.MovCr.com
Writing library : LAME3.99r
Encoding settings : -m j -V 4 -q 3 -lowpass 15.1 --abr 96
Language : Hindi
Default : Yes
Forced : No

Audio #2
ID : 3
Format : MPEG Audio
Format version : Version 1
Format profile : Layer 3
Format settings : Joint stereo
Codec ID : A_MPEG/L3
Codec ID/Hint : MP3
Duration : 1 h 49 min
Bit rate mode : Variable
Bit rate : 88.5 kb/s
Nominal bit rate : 96.0 kb/s
Channel(s) : 2 channels
Sampling rate : 48.0 kHz
Frame rate : 41.667 FPS (1152 SPF)
Compression mode : Lossy
Stream size : 69.3 MiB (8%)
Title : www.MovCr.com
Writing library : LAME3.99r
Encoding settings : -m j -V 4 -q 3 -lowpass 15.1 --abr 96
Language : Tamil
Default : No
Forced : No

Audio #3
ID : 4
Format : MPEG Audio
Format version : Version 1
Format profile : Layer 3
Format settings : Joint stereo
Codec ID : A_MPEG/L3
Codec ID/Hint : MP3
Duration : 1 h 49 min
Bit rate mode : Variable
Bit rate : 96.0 kb/s
Channel(s) : 2 channels
Sampling rate : 48.0 kHz
Frame rate : 41.667 FPS (1152 SPF)
Compression mode : Lossy
Stream size : 73.9 MiB (8%)
Title : www.MovCr.com
Writing library : LAME3.99r
Encoding settings : -m j -V 4 -q 3 -lowpass 15.1 --abr 96
Language : English
Default : No
Forced : No







Similar Torrents

No Similar Torrents Found

If we find similar torrents, we normally show them right here. We couldn't find anything for "".

Torrent Trackers

Files inside this torrent

FILENAMESIZE
icon [MovCr.com] - The Meg(2018) 720p - HC-HDRip - x264 - Line Auds [Hindi + Tamil + Eng] - 900MB - MovCr.mkv896.8 MB