Torrent Details

Photo Not Available
The Predator Cam - 2018 By Pioneer
Size1.5 GB in 1 file
ReleasesAdded on 24.09.2018 at 23:19 into the Movies category by Unknown.
Status9 seeds & 3 peers.
Hashfab8914ab5469f1ee81564fe9314085c859cff20
Rating
  • YourBT Visitors

Status This torrent has been verified.
*

Torrent Description

The Predator 2018 - Cam - By Pioneer

http://www.imdb.com/title/tt3829266/

When a young boy accidentally triggers the universe's most lethal hunters' return to Earth, only a ragtag crew of ex-soldiers and a disgruntled science teacher can prevent the end of the human race.

Format : MPEG-4
Format profile : Base Media / Version 2
Codec ID : mp42
File size : 1.47 GiB
Duration : 1h 38mn
Overall bit rate : 2 123 Kbps

Video
ID : 1
Format : AVC
Format/Info : Advanced Video Codec
Format profile : [email protected]
Format settings, CABAC : Yes
Format settings, ReFrames : 1 frame
Format settings, GOP : M=1, N=25
Muxing mode : Container [email protected]
Codec ID : avc1
Codec ID/Info : Advanced Video Coding
Duration : 1h 38mn
Bit rate : 1 998 Kbps
Width : 1 280 pixels
Height : 720 pixels
Display aspect ratio : 16:9
Frame rate mode : Constant
Frame rate : 30.000 fps
Color space : YUV
Chroma subsampling : 4:2:0
Bit depth : 8 bits
Scan type : Progressive
Bits/(Pixel*Frame) : 0.072
Stream size : 1.38 GiB (94%)
Language : English

Audio
ID : 2
Format : AAC
Format/Info : Advanced Audio Codec
Format profile : LC
Codec ID : 40
Duration : 1h 38mn
Bit rate mode : Constant
Bit rate : 120 Kbps
Channel(s) : 2 channels
Channel positions : Front: L R
Sampling rate : 44.1 KHz
Compression mode : Lossy
Stream size : 84.9 MiB (6%)
Language : English

Enjoy By Pioneer

http://imgur.com/a/SZzQWJg






Similar Torrents

No Similar Torrents Found

If we find similar torrents, we normally show them right here. We couldn't find anything for "".

Torrent Trackers

TRACKER URLSEEDSPEERS
Onlineudp://tracker.coppersurfer.tk:6969/announce93
Onlineudp://tracker.pirateparty.gr:6969/announce53
Onlineudp://tracker.opentrackr.org:1337/announce03
Onlineudp://mgtracker.org:6969/announce00
Onlineudp://tracker.zer0day.to:1337/announce02
Onlineudp://tracker.open-internet.nl:6969/announce00

Files inside this torrent

FILENAMESIZE
icon The Predator Cam - 2018 By Pioneer.mp41.5 GB