Torrent Details

Skyscraper 2018 1080p BluRay AC3 5 1 x264 [MW]
Skyscraper 2018 1080p BluRay AC3 5 1 x264 [MW]
Size2.8 GB in 1 file
ReleasesAdded on 29.09.2018 at 21:07 into the Movies category by Unknown.
Status21 seeds & 8 peers.
Hashe7810762db83d6d9433d84bfb9d820af473db4ed
Rating
  • YourBT Visitors

Status This torrent has been verified.
*

Torrent Description







General

Format                                   : Matroska

Format version                           : Version 4 / Version 2

File size                                : 2.81 GiB

Duration                                 : 1 h 42 min

Overall bit rate                         : 3 924 kb/s



Video

ID                                       : 1

Format                                   : AVC

Format/Info                              : Advanced Video Codec

Format profile                           : [email protected]

Format settings                          : CABAC / 4 Ref Frames

Format settings, CABAC                   : Yes

Format settings, RefFrames               : 4 frames

Codec ID                                 : V_MPEG4/ISO/AVC

Duration                                 : 1 h 42 min

Bit rate                                 : 3 500 kb/s

Width                                    : 1 920 pixels

Height                                   : 800 pixels

Display aspect ratio                     : 2.40:1

Frame rate mode                          : Constant

Frame rate                               : 23.976 (24000/1001) FPS

Color space                              : YUV

Chroma subsampling                       : 4:2:0

Bit depth                                : 8 bits

Scan type                                : Progressive

Bits/(Pixel*Frame)                       : 0.095

Stream size                              : 2.48 GiB (88%)

Writing library                          : x264 core 155 r2901 7d0ff22

Default                                  : Yes

Forced                                   : No



Audio

ID                                       : 2

Format                                   : AC-3

Format/Info                              : Audio Coding 3

Codec ID                                 : A_AC3

Duration                                 : 1 h 42 min

Bit rate mode                            : Constant

Bit rate                                 : 448 kb/s

Channel(s)                               : 6 channels

Channel positions                        : Front: L C R, Side: L R, LFE

Sampling rate                            : 48.0 kHz

Frame rate                               : 31.250 FPS (1536 SPF)

Bit depth                                : 16 bits

Compression mode                         : Lossy

Stream size                              : 328 MiB (11%)

Language                                 : English

Service kind                             : Complete Main

Default                                  : Yes

Forced                                   : No



Text

ID                                       : 3

Format                                   : VobSub

Muxing mode                              : zlib

Codec ID                                 : S_VOBSUB

Codec ID/Info                            : Picture based subtitle format used on DVDs

Duration                                 : 1 h 32 min

Bit rate                                 : 6 571 b/s

Count of elements                        : 1324

Stream size                              : 4.33 MiB (0%)

Language                                 : English

Default                                  : Yes

Forced                                   : No





http://pichub.site/image/EXoLI

http://pichub.site/image/EXryg

http://pichub.site/image/EX5d8

http://pichub.site/image/EXpFX

http://pichub.site/image/EXlGJ

http://pichub.site/image/EX635



Similar Torrents

No Similar Torrents Found

If we find similar torrents, we normally show them right here. We couldn't find anything for "".

Torrent Trackers

TRACKER URLSEEDSPEERS
Onlineudp://tracker.coppersurfer.tk:6969/announce218
Onlineudp://tracker.pirateparty.gr:6969/announce208
Onlineudp://tracker.opentrackr.org:1337/announce118
Onlineudp://tracker.open-internet.nl:6969/announce74
Onlineudp://mgtracker.org:6969/announce65
Onlineudp://tracker.zer0day.to:1337/announce02

Files inside this torrent

FILENAMESIZE
icon Skyscraper 2018 1080p BluRay AC3 5.1 x264 [MW].mkv2.8 GB