Torrent Details

Skyscraper (2018) 720p Hindi Dubbed (Org) HDRip x264 AC3 ESubs by Full4movies
Skyscraper (2018) 720p Hindi Dubbed (Org) HDRip x264 AC3 ESubs by Full4movies
Size921 MB in 1 file
ReleasesAdded on 02.10.2018 at 16:34 into the Movies category by Unknown.
Status14 seeds & 3 peers.
Hashf9dd9abd7b4c999157235393b9f52ccde750b983
Rating
  • YourBT Visitors

Status This torrent has been verified.
*

Torrent Description

General
Complete name : Skyscraper (2018) 720p Hindi Dubbed (Org) HDRip x264 AC3 ESubs by Full4movies.mkv
Format : Matroska
Format version : Version 4 / Version 2
File size : 921 MiB
Duration : 1 h 42 min
Overall bit rate : 1 257 kb/s
Movie name : www.Full4movies.co
Encoded date : UTC 2018-10-02 07:56:03
Writing application : mkvmerge v8.1.0 ('Psychedelic Postcard') 32bit
Writing library : libebml v1.3.1 + libmatroska v1.4.2

Video
ID : 1
Format : AVC
Format/Info : Advanced Video Codec
Format profile : [email protected]
Format settings, CABAC : Yes
Format settings, RefFrames : 4 frames
Codec ID : V_MPEG4/ISO/AVC
Duration : 1 h 42 min
Bit rate : 1 064 kb/s
Width : 1 280 pixels
Height : 530 pixels
Display aspect ratio : 2.40:1
Frame rate mode : Constant
Frame rate : 23.976 (24000/1001) FPS
Color space : YUV
Chroma subsampling : 4:2:0
Bit depth : 8 bits
Scan type : Progressive
Bits/(Pixel*Frame) : 0.065
Stream size : 779 MiB (85%)
Writing library : x264 core 146 r2538 121396c
Language : Hindi
Default : Yes
Forced : Yes

Audio
ID : 2
Format : AC-3
Format/Info : Audio Coding 3
Format settings, Endianness : Big
Codec ID : A_AC3
Duration : 1 h 42 min
Bit rate mode : Constant
Bit rate : 192 kb/s
Channel(s) : 2 channels
Channel positions : Front: L R
Sampling rate : 48.0 kHz
Frame rate : 31.250 FPS (1536 SPF)
Bit depth : 16 bits
Compression mode : Lossy
Stream size : 141 MiB (15%)
Language : Hindi
Service kind : Complete Main
Default : Yes
Forced : Yes

Text
ID : 3
Format : UTF-8
Codec ID : S_TEXT/UTF8
Codec ID/Info : UTF-8 Plain Text
Duration : 1 h 31 min
Bit rate : 43 b/s
Count of elements : 1019
Stream size : 28.9 KiB (0%)
Language : English
Default : Yes
Forced : Yes

Screen Shoots



Similar Torrents

No Similar Torrents Found

If we find similar torrents, we normally show them right here. We couldn't find anything for "".

Torrent Trackers

TRACKER URLSEEDSPEERS
Onlineudp://tracker.pirateparty.gr:6969/announce142
Onlineudp://tracker.coppersurfer.tk:6969/announce132
Onlineudp://tracker.open-internet.nl:6969/announce101
Onlineudp://tracker.opentrackr.org:1337/announce72
Onlineudp://mgtracker.org:6969/announce71
Onlineudp://tracker.zer0day.to:1337/announce03

Files inside this torrent

FILENAMESIZE
icon Skyscraper (2018) 720p Hindi Dubbed (Org) HDRip x264 AC3 ESubs by Full4movies.mkv921.5 MB