Torrent Details

Sui Dhaaga Made In India 2018 Hindi Movies PDVDRip x264 Clean Audio AAC New Source with Sample ☻rDX☻
Sui Dhaaga Made In India 2018 Hindi Movies PDVDRip x264 Clean Audio AAC New Source with Sample ☻rDX☻
Size732 MB in 2 files
ReleasesAdded on 02.10.2018 at 20:48 into the Movies category by Unknown.
Status182 seeds & 51 peers.
Hash9735f9bfeac6f56ea7d026347c1146e1ab23205b
Rating
  • YourBT Visitors

Status This torrent has been verified.
*

Torrent Description

Sui Dhaaga Made In India 2018 Hindi Movies PDVDRip x264 Clean Audio AAC New Source with Sample ☻rDX☻====================================================

SCREEN SHOTS:



or

http://iphonehosting.eu/2018/9/a/offline/1.html

File size : 725 MiB
Duration : 1 h 57 min
Overall bit rate mode : Constant
Overall bit rate : 863 kb/s
Movie name : Sui Dhaaga Made In India 2018 Hindi Movies PDVDRip x264 Clean Audio AAC New Source ☻rDX☻

Video
ID : 2
Format : AVC
Format/Info : Advanced Video Codec
Format profile : [email protected]
Format settings, CABAC : Yes
Format settings, ReFrames : 2 frames
Format settings, GOP : M=1, N=25
Codec ID : V_MPEG4/ISO/AVC
Duration : 1 h 57 min
Bit rate mode : Constant
Bit rate : 800 kb/s
Width : 688 pixels
Height : 292 pixels
Display aspect ratio : 2.35:1
Frame rate mode : Constant
Frame rate : 29.970 (30000/1001) FPS
Color space : YUV
Chroma subsampling : 4:2:0
Bit depth : 8 bits
Scan type : Progressive
Bits/(Pixel*Frame) : 0.133
Stream size : 657 MiB (91%)
Title : ☻rDX☻
Default : Yes
Forced : No

Audio
ID : 1
Format : MPEG Audio
Format version : Version 1
Format profile : Layer 3
Mode : Joint stereo
Mode extension : MS Stereo
Codec ID : A_MPEG/L3
Codec ID/Hint : MP3
Duration : 1 h 57 min
Bit rate mode : Constant
Bit rate : 64.0 kb/s
Channel(s) : 2 channels
Sampling rate : 44.1 kHz
Compression mode : Lossy
Stream size : 53.8 MiB (7%)
Title : ☻rDX☻
Default : Yes
Forced : No

http://www.imdb.com/title/tt7147540



Similar Torrents

No Similar Torrents Found

If we find similar torrents, we normally show them right here. We couldn't find anything for "".

Torrent Trackers

TRACKER URLSEEDSPEERS
Onlineudp://tracker.pirateparty.gr:6969/announce18251
Onlineudp://tracker.coppersurfer.tk:6969/announce17747
Onlineudp://tracker.opentrackr.org:1337/announce9222
Onlineudp://mgtracker.org:6969/announce3612
Onlineudp://tracker.zer0day.to:1337/announce246
Onlineudp://tracker.open-internet.nl:6969/announce40

Files inside this torrent

FILENAMESIZE
icon Sample ~ Sui Dhaaga Made In India 2018 Hindi Movies PDVDRip x264 Clean Audio AAC New Source ☻rDX☻.mkv7 MB
icon Sui Dhaaga Made In India 2018 Hindi Movies PDVDRip x264 Clean Audio AAC New Source ☻rDX☻.mkv724.8 MB