Torrent Details

18+ A Simple Favor 2018 UNCENSORED Movies HD TS x264 Clean Audio AAC New Source with Sample ☻rDX☻
18+ A Simple Favor 2018 UNCENSORED Movies HD TS x264 Clean Audio AAC New Source with Sample ☻rDX☻
Size730 MB in 2 files
ReleasesAdded on 03.10.2018 at 19:48 into the Movies category by Unknown.
Status46 seeds & 6 peers.
Hash4564a051c7f8796116b362600656f250aa010456
Rating
  • YourBT Visitors

Status This torrent has been verified.
*

Torrent Description

18+ A Simple Favor 2018 UNCENSORED Movies HD TS x264 Clean Audio AAC New Source with Sample ☻rDX☻====================================================

SCREEN SHOTS:



or

http://iphonehosting.eu/2018/9/acerlaptops/1.html

File size : 723 MiB
Duration : 1 h 57 min
Overall bit rate mode : Constant
Overall bit rate : 863 kb/s
Movie name : 18+ A Simple Favor 2018 Movies HD TS x264 Clean Audio AAC New Source ☻rDX☻

Video
ID : 2
Format : AVC
Format/Info : Advanced Video Codec
Format profile : [email protected]
Format settings, CABAC : Yes
Format settings, ReFrames : 2 frames
Format settings, GOP : M=1, N=25
Codec ID : V_MPEG4/ISO/AVC
Duration : 1 h 57 min
Bit rate mode : Constant
Bit rate : 800 kb/s
Width : 700 pixels
Height : 360 pixels
Display aspect ratio : 1.944
Frame rate mode : Constant
Frame rate : 29.970 (30000/1001) FPS
Color space : YUV
Chroma subsampling : 4:2:0
Bit depth : 8 bits
Scan type : Progressive
Bits/(Pixel*Frame) : 0.106
Stream size : 655 MiB (91%)
Title : ☻rDX☻
Default : Yes
Forced : No

Audio
ID : 1
Format : MPEG Audio
Format version : Version 1
Format profile : Layer 3
Mode : Joint stereo
Mode extension : MS Stereo
Codec ID : A_MPEG/L3
Codec ID/Hint : MP3
Duration : 1 h 57 min
Bit rate mode : Constant
Bit rate : 64.0 kb/s
Channel(s) : 2 channels
Sampling rate : 44.1 kHz
Compression mode : Lossy
Stream size : 53.7 MiB (7%)
Title : ☻rDX☻
Default : Yes
Forced : No

http://www.imdb.com/title/tt7040874/



Similar Torrents

No Similar Torrents Found

If we find similar torrents, we normally show them right here. We couldn't find anything for "".

Torrent Trackers

TRACKER URLSEEDSPEERS
Onlineudp://tracker.coppersurfer.tk:6969/announce466
Onlineudp://tracker.pirateparty.gr:6969/announce414
Onlineudp://tracker.opentrackr.org:1337/announce164
Onlineudp://mgtracker.org:6969/announce94
Onlineudp://tracker.open-internet.nl:6969/announce61
Onlineudp://tracker.zer0day.to:1337/announce12

Files inside this torrent

FILENAMESIZE
icon 18+ A Simple Favor 2018 UNCENSORED Movies HD TS x264 Clean Audio AAC New Source ☻rDX☻.mkv723.4 MB
icon Sample ~ 18+ A Simple Favor 2018 UNCENSORED Movies HD TS x264 Clean Audio AAC New Source ☻rDX☻.mkv6.2 MB