Torrent Details

Venom (2018) HD-TS 720p Hindi Dubbed (Clean Audio) x264 -SkymoviesHD in
Venom (2018) HD-TS 720p Hindi Dubbed (Clean Audio) x264 -SkymoviesHD in
Size800 MB in 1 file
ReleasesAdded on 06.10.2018 at 6:10 into the Movies category by Unknown.
Status68 seeds & 33 peers.
Hashddc3ac9758fbfb1ca1e553f6130db935257ace72
Rating
  • YourBT Visitors

Status This torrent has been verified.
*

Torrent Description

New Latest HD Movies Download Link :- http://skymovieshd.in
***********************************




General
Format : Matroska
Format version : Version 4 / Version 2
File size : 2.55 GiB
Duration : 1 h 31 min
Overall bit rate mode : Variable
Overall bit rate : 3 963 kb/s
Movie name : Venom (2018) 720p HD-TS Hindi Dubbed ~SkyMoviesHD Team
Video
ID : 1
Format : AVC
Format/Info : Advanced Video Codec
Duration : 1 h 31 min
Bit rate mode : Variable
Bit rate : 3 835 kb/s
Maximum bit rate : 4 000 kb/s
Width : 1 280 pixels
Height : 544 pixels
Display aspect ratio : 2.35:1
Frame rate mode : Constant
Frame rate : 23.976 (24000/1001) FPS
Standard : Component
Color space : YUV
Chroma subsampling : 4:2:0
Bit depth : 8 bits
Scan type : Progressive
Bits/(Pixel*Frame) : 0.230
Stream size : 2.46 GiB (97%)
Title : ~Ranvijay
Language : English
Default : Yes
Forced : No

Audio
ID : 2
Format : AAC
Format/Info : Advanced Audio Codec
Format profile : LC
Codec ID : A_AAC-2
Duration : 1 h 31 min
Bit rate : 128 kb/s
Channel(s) : 2 channels
Channel positions : Front: L R
Sampling rate : 48.0 kHz
Frame rate : 46.875 FPS (1024 SPF)
Compression mode : Lossy
Stream size : 84.1 MiB (3%)
Title : ~Ranvijay
Language : Hindi
Default : Yes
Forced : Yes






New Latest HD Movies Download Link :- http://skymovieshd.in
***********************************



Similar Torrents

No Similar Torrents Found

If we find similar torrents, we normally show them right here. We couldn't find anything for "".

Torrent Trackers

TRACKER URLSEEDSPEERS
Onlineudp://tracker.coppersurfer.tk:6969/announce6833
Onlineudp://tracker.pirateparty.gr:6969/announce6827
Onlineudp://tracker.opentrackr.org:1337/announce6220
Onlineudp://tracker.open-internet.nl:6969/announce5012
Onlineudp://mgtracker.org:6969/announce3118
Onlineudp://tracker.zer0day.to:1337/announce2923

Files inside this torrent

FILENAMESIZE
icon Venom (2018) HD-TS 720p Hindi Dubbed (Clean Audio) x264 -SkymoviesHD.in.mkv799.9 MB