Torrent Details

The Meg 2018 SUBBED 1080p WEBRip DD 5 1 x264 [MW]
The Meg 2018 SUBBED 1080p WEBRip DD 5 1 x264 [MW]
Size2 GB in 1 file
ReleasesAdded on 07.10.2018 at 14:10 into the Movies category by Unknown.
Status22 seeds & 49 peers.
Hash038aa6530fa4fea46152156fd849958b23fd3084
Rating
  • YourBT Visitors

Status This torrent has been verified.
*

Torrent Description

General
Format : Matroska
Format version : Version 4 / Version 2
File size : 1.99 GiB
Duration : 1 h 54 min
Overall bit rate : 2 486 kb/s

Video
ID : 1
Format : AVC
Format/Info : Advanced Video Codec
Format profile : [email protected]
Format settings : CABAC / 4 Ref Frames
Format settings, CABAC : Yes
Format settings, RefFrames : 4 frames
Codec ID : V_MPEG4/ISO/AVC
Duration : 1 h 54 min
Bit rate : 2 200 kb/s
Width : 1 920 pixels
Height : 804 pixels
Display aspect ratio : 2.40:1
Frame rate mode : Constant
Frame rate : 23.976 (24000/1001) FPS
Color space : YUV
Chroma subsampling : 4:2:0
Bit depth : 8 bits
Scan type : Progressive
Bits/(Pixel*Frame) : 0.059
Stream size : 1.68 GiB (84%)
Writing library : x264 core 155 r2901 7d0ff22
Default : Yes
Forced : No

Audio
ID : 2
Format : AC-3
Format/Info : Audio Coding 3
Codec ID : A_AC3
Duration : 1 h 54 min
Bit rate mode : Constant
Bit rate : 384 kb/s
Channel(s) : 6 channels
Channel positions : Front: L C R, Side: L R, LFE
Sampling rate : 48.0 kHz
Frame rate : 31.250 FPS (1536 SPF)
Bit depth : 16 bits
Compression mode : Lossy
Stream size : 315 MiB (15%)
Language : English
Service kind : Complete Main
Default : Yes
Forced : No


Click To Enlarge Image








Similar Torrents

No Similar Torrents Found

If we find similar torrents, we normally show them right here. We couldn't find anything for "".

Torrent Trackers

TRACKER URLSEEDSPEERS
Onlineudp://tracker.coppersurfer.tk:6969/announce2249
Onlineudp://tracker.pirateparty.gr:6969/announce1337
Onlineudp://mgtracker.org:6969/announce919
Onlineudp://tracker.opentrackr.org:1337/announce15
Onlineudp://tracker.open-internet.nl:6969/announce18
Onlineudp://tracker.zer0day.to:1337/announce00

Files inside this torrent

FILENAMESIZE
icon The Meg 2018 SUBBED 1080p WEBRip DD 5.1 x264 [MW].mkv2 GB